Digimon Adventure tri: Reunion (2015) Hindi Dub 720p BluRay x264 AAC ~Badur

Poster

iMDB

Original Title: Digimon Adventure tri. Saikai
Title: Digimon Adventure tri: Reunion
Year: 2015
Runtime: 96 minutes
Language: Japanese, English
All Genres: Animation, Action, Adventure, Family, Sci-Fi
Director: Keitarô Motonaga
Writing By: Yuniko Ayana,Ardwight Chamberlain,Mitsutaka Hirota,Akiyoshi Hongo,Yuko Kakihara,Yuko Kakihara,Mark Ryan,Takaaki Suzuki,
Produced By: Shuhei Arai,Iriya Azuma,Rita Majkut,Hugo Mayorga,Kôhei Motokawa,Makiko Murakami,Tohru Nishida,Takashi Sakurai,Jamie Simone,Atsushi Suzuki,Katsuhiro Takagi,Kiyoshi Yamamoto,
Music: Go Sakabe
Cast:
Cherami Leigh as Biyomon / Maki Himekawa
Johnny Yong Bosch as T.K. Takaishi
Vic Mignogna as Matt Ishida
Cristina Valenzuela as Meiko Mochizuki
Robbie Daymond as Joe Kido
Doug Erholtz as Daigo Nishijima
Kate Higgins as Gatomon / Meicoomon
Tara Sands as Kari Kamiya / TV News Reporter
Mona Marshall as Izzy Izumi
Kirk Thornton as Gabumon / Garurumon / WereGarurumon / MetalGarurumon / Omnimon

Details

Name:Digimon Adventure tri: Reunion (2015) Hindi Dub 720p BluRay x264 AAC ~Badur
Description:

Digimon Adventure tri: Reunion (2015) Hindi Dub 720p BluRay x264 AAC ~Badur


Format                                   : MPEG-4
Format profile                           : Base Media / Version 2
Codec ID                                 : mp42 (isom/iso2/avc1/mp41)
File size                                : 416 MiB
Duration                                 : 1 h 28 min
Overall bit rate mode                    : Variable
Overall bit rate                         : 654 kb/s
Encoded date                             : UTC 2018-08-12 16:45:08
Tagged date                              : UTC 2018-08-12 16:45:08
Writing application                      : HandBrake 0.10.5 2016021100

Video
ID                                       : 1
Format                                   : AVC
Format/Info                              : Advanced Video Codec
Format profile                           : Main@L4
Format settings                          : CABAC / 4 Ref Frames
Format settings, CABAC                   : Yes
Format settings, ReFrames                : 4 frames
Codec ID                                 : avc1
Codec ID/Info                            : Advanced Video Coding
Duration                                 : 1 h 28 min
Bit rate                                 : 491 kb/s
Width                                    : 1 280 pixels
Height                                   : 720 pixels
Display aspect ratio                     : 16:9
Frame rate mode                          : Constant
Frame rate                               : 25.000 FPS
Color space                              : YUV
Chroma subsampling                       : 4:2:0
Bit depth                                : 8 bits
Scan type                                : Progressive
Bits/(Pixel*Frame)                       : 0.021
Stream size                              : 312 MiB (75%)
Writing library                          : x264 core 142 r2479 dd79a61
Encoded date                             : UTC 2018-08-12 16:45:08
Tagged date                              : UTC 2018-08-12 16:45:08
Color range                              : Limited
Color primaries                          : BT.709
Transfer characteristics                 : BT.709
Matrix coefficients                      : BT.709

Audio
ID                                       : 2
Format                                   : AAC
Format/Info                              : Advanced Audio Codec
Format profile                           : LC
Codec ID                                 : mp4a-40-2
Duration                                 : 1 h 28 min
Bit rate mode                            : Variable
Bit rate                                 : 157 kb/s
Channel(s)                               : 2 channels
Channel positions                        : Front: L R
Sampling rate                            : 48.0 kHz
Frame rate                               : 46.875 FPS (1024 SPF)
Compression mode                         : Lossy
Stream size                              : 99.7 MiB (24%)
Title                                    : Stereo / Stereo
Language                                 : Hindi
Default                                  : Yes
Alternate group                          : 1
Encoded date                             : UTC 2018-08-12 16:45:08
Tagged date                              : UTC 2018-08-12 16:45:08


5e2afecb3ccded49f87cd760724a3824.jpg
Category:Movies > Hollywood Dub
Lang:Hindi
Total Size:415.79 MB

|| Download This Movie Via Single Resumable Links Size: 416 MB ||

Direct-1 Google Drive | Direct-2 | Direct-3 |

Watch Online Click Here

Incoming search terms: