Fantastic Beasts: The Crimes of Grindelwald (2018) 720p HDCAM x264 – Line Auds [Hindi + Eng] – 950MB – MovCr

Poster

iMDB

Title: Fantastic Beasts: The Crimes of Grindelwald
Year: 2018
Runtime: 134 minutes
Votes: 8979
Rating: 7.5/10
Language: English
Tagline: The fate of one will change the future of all.
Director: David Yates
Writing By: J.K. Rowling,J.K. Rowling,
Produced By: Neil Blair,Danny Cohen,David Heyman,Steve Kloves,Tim Lewis,Josh Robertson,J.K. Rowling,Rick Senat,Lionel Wigram,
Music: James Newton Howard
Cast:
Johnny Depp as Grindelwald
Kevin Guthrie as Abernathy
Carmen Ejogo as Seraphina Picquery
Wolf Roth as Spielman
Eddie Redmayne as Newt Scamander
Zoë Kravitz as Leta Lestrange
Callum Turner as Theseus Scamander
Derek Riddell as Torquil Travers
Cornell John as Arnold Guzman
Ezra Miller as Credence Barebone
Trailers:
Official Trailer
Watch the Trailer
Final Trailer
Official Comic-Con Trailer
Teaser Trailer
Trailer Tease
Details

Name:Fantastic Beasts: The Crimes of Grindelwald (2018) 720p HDCAM x264 – Line Auds [Hindi + Eng] – 950MB – MovCr
Description:

Fantastic Beasts: The Crimes of Grindelwald (2018) 720p HDCAM x264 – Line Auds [Hindi + Eng] – 950MB – MovCr

General
Format                                   : Matroska
Format version                           : Version 4
File size                                : 980 MiB
Duration                                 : 2 h 5 min
Overall bit rate                         : 1 092 kb/s

Video
ID                                       : 1
Format                                   : AVC
Format/Info                              : Advanced Video Codec
Format profile                           : High@L3.2
Format settings                          : CABAC / 4 Ref Frames
Format settings, CABAC                   : Yes
Format settings, ReFrames                : 4 frames
Codec ID                                 : V_MPEG4/ISO/AVC
Duration                                 : 2 h 5 min
Bit rate                                 : 880 kb/s
Width                                    : 1 280 pixels
Height                                   : 536 pixels
Display aspect ratio                     : 2.40:1
Frame rate mode                          : Constant
Frame rate                               : 29.970 (30000/1001) FPS
Color space                              : YUV
Chroma subsampling                       : 4:2:0
Bit depth                                : 8 bits
Scan type                                : Progressive
Bits/(Pixel*Frame)                       : 0.043
Stream size                              : 790 MiB (81%)
Writing library                          : x264 core 155 r2901 7d0ff22
Default                                  : Yes
Forced                                   : No
Color range                              : Limited
Color primaries                          : BT.601 NTSC
Transfer characteristics                 : BT.709
Matrix coefficients                      : BT.601

Audio #1
ID                                       : 2
Format                                   : MPEG Audio
Format version                           : Version 1
Format profile                           : Layer 3
Format settings                          : Joint stereo / MS Stereo
Codec ID                                 : A_MPEG/L3
Codec ID/Hint                            : MP3
Duration                                 : 2 h 5 min
Bit rate mode                            : Constant
Bit rate                                 : 128 kb/s
Channel(s)                               : 2 channels
Sampling rate                            : 48.0 kHz
Frame rate                               : 41.667 FPS (1152 SPF)
Compression mode                         : Lossy
Delay relative to video                  : -21 ms
Stream size                              : 115 MiB (12%)
Default                                  : Yes
Forced                                   : No

Audio #2
ID                                       : 3
Format                                   : AAC LC
Format/Info                              : Advanced Audio Codec Low Complexity
Codec ID                                 : A_AAC-2
Duration                                 : 2 h 5 min
Bit rate                                 : 80.2 kb/s
Channel(s)                               : 2 channels
Channel layout                           : L R
Sampling rate                            : 48.0 kHz
Frame rate                               : 46.875 FPS (1024 SPF)
Compression mode                         : Lossy
Delay relative to video                  : -21 ms
Stream size                              : 72.0 MiB (7%)
Language                                 : English
Default                                  : No
Forced                                   : No

         

Category:Movies > Hollywood Dub
Lang:Hindi
Total Size:979.71 MB

|| Download This Movie Via Single Resumable Links Size: 980 MB ||

Direct-1 Google Drive | Direct-2 | Direct-3 |

Watch Online Click Here

Incoming search terms: