Genius (2018) Hindi 1080p UntoucheD WEB-DL x264 AAC DD2.0 – DTOne

Poster

iMDB

Title: Genius
Year: 2018
Runtime: 165 minutes
Language: Hindi
All Genres: Action, Thriller
Tagline: Dil Ki Ladaai Dimaag Se
Director: Anil Sharma
Writing By: Anil Sharma,Anil Sharma,Sunil Sirvaiya,Amjad Ali,
Produced By: Harsh Dave,Deepak Mukut,Sunil Sharma,
Music: Monty Sharma
Cast:
Utkarsh Sharma as Vasudev Shastri (Vasu / Genius)
Ishita Chauhan as Nandini Chouhan
Mithun Chakraborty as Jai Shankar Prasad
Ayesha Jhulka as Nandini’s Mother
Nawazuddin Siddiqui as MRS (Mr Sabhar Khan)
Malti Chahar as RAW agent
Dev Gill as Rajiv ranjan
Zakir Hussain as Minister
Muni Jha as Pujari Baba
Rajiv Kachroo as Jason
Trailers:
Genius Trailer

Details

Name:Genius (2018) Hindi 1080p UntoucheD WEB-DL x264 AAC DD2.0 – DTOne
Description:

Genius (2018) 1080p WEBHD Untouched – DTOne

General
Format                                   : MPEG-4
Format profile                           : Base Media
Codec ID                                 : isom (isom/iso2/avc1/mp41)
File size                                : 3.10 GiB
Duration                                 : 2 h 25 min
Overall bit rate                         : 3 046 kb/s
Writing application                      : Lavf58.17.101

Video
ID                                       : 1
Format                                   : AVC
Format/Info                              : Advanced Video Codec
Format profile                           : High@L4
Format settings                          : CABAC / 4 Ref Frames
Format settings, CABAC                   : Yes
Format settings, RefFrames               : 4 frames
Codec ID                                 : avc1
Codec ID/Info                            : Advanced Video Coding
Duration                                 : 2 h 25 min
Bit rate                                 : 3 000 kb/s
Width                                    : 1 920 pixels
Height                                   : 1 080 pixels
Display aspect ratio                     : 16:9
Frame rate mode                          : Constant
Frame rate                               : 25.000 FPS
Color space                              : YUV
Chroma subsampling                       : 4:2:0
Bit depth                                : 8 bits
Scan type                                : Progressive
Bits/(Pixel*Frame)                       : 0.058
Stream size                              : 3.02 GiB (98%)
Writing library                          : x264 core 152 r2854 e9a5903

Audio
ID                                       : 2
Format                                   : AAC
Format/Info                              : Advanced Audio Codec
Format profile                           : LC
Codec ID                                 : mp4a-40-2
Duration                                 : 2 h 25 min
Bit rate mode                            : Constant
Bit rate                                 : 64.3 kb/s
Channel(s)                               : 2 channels
Channel positions                        : Front: L R
Sampling rate                            : 48.0 kHz
Frame rate                               : 46.875 FPS (1024 SPF)
Compression mode                         : Lossy
Stream size                              : 66.9 MiB (2%)
Default                                  : Yes
Alternate group                          : 1






Category:Movies > Bollywood
Lang:Hindi
Total Size:3.10 GB

|| Download This Movie Via Single Resumable Links Size: 3.10 GB ||

Direct-1 Google Drive | Direct-2 | Direct-3 |

Watch Online Click Here