Gold (2018) Hindi 1080p AMZN-DL H264 AC3 DDP5.1 – NbT

Poster

iMDB

Imdb Picture Title: Gold
Year: 2018
Runtime: 151 minutes
Votes: 800
Rating: 8.8/10
Language: Hindi
Country: India
All Genres: Drama, History, Sport
Plot Outline: Set in 1948, the historic story of India’s first Olympic medal post their independence.
Director: Reema Kagti
Writing By: Rajesh Devraj,Reema Kagti,Reema Kagti,Javed Akhtar,
Produced By: Farhan Akhtar,Vikesh Bhutani,Kassim Jagmagia,Firuzi Khan,Seher Latif,Shivani Saran,Ritesh Sidhwani,
Music: Sachin Sanghvi Jigar Saraiya
Cast:
Akshay Kumar as Tapan Das
Mouni Roy as Monobina Das
Kunal Kapoor as Samrat
Amit Sadh as Raghubir Pratap Singh
Vineet Kumar Singh as Imtiaz Shah
Sunny Kaushal as Himmat Singh
Nikita Dutta as Simran
Andrew Havill as Sir James Benson
Manjit Singh as Barry / Hockey Player
Christopher James Burton as Dutch Goaltender
Trailers:
Gold Teaser

Details

Name:Gold (2018) Hindi 1080p AMZN-DL H264 AC3 DD5.1 – NbT
Description:

Gold 2018 Hindi 1080p AMZN WEB-DL H264 DDP5.1 – NbT

General
Format                      : Matroska
Format version              : Version 4
File size                   : 7.32 GiB
Duration                    : 2 h 25 min
Overall bit rate mode       : Variable
Overall bit rate            : 7 191 kb/s
Encoded date                : UTC 2018-10-29 17:17:17
Writing application         : mkvmerge v28.0.0 (‘Voice In My Head’) 64-bit
Writing library             : libebml v1.3.6 + libmatroska v1.4.9
Cover                       : Yes
Attachments                 : cover.jpg

Video
ID                          : 1
Format                      : AVC
Format/Info                 : Advanced Video Codec
Format profile              : High@L4
Format settings             : CABAC / 4 Ref Frames
Format settings, CABAC      : Yes
Format settings, ReFrames   : 4 frames
Codec ID                    : V_MPEG4/ISO/AVC
Duration                    : 2 h 25 min
Bit rate mode               : Variable
Bit rate                    : 6 549 kb/s
Maximum bit rate            : 15.0 Mb/s
Width                       : 1 920 pixels
Height                      : 816 pixels
Display aspect ratio        : 2.35:1
Frame rate mode             : Constant
Frame rate                  : 25.000 FPS
Color space                 : YUV
Chroma subsampling          : 4:2:0
Bit depth                   : 8 bits
Scan type                   : Progressive
Bits/(Pixel*Frame)          : 0.167
Stream size                 : 6.67 GiB (91%)
Default                     : Yes
Forced                      : No
Color range                 : Limited
Color primaries             : BT.709
Transfer characteristics    : BT.709
Matrix coefficients         : BT.709

Audio
ID                          : 2
Format                      : E-AC-3
Format/Info                 : Enhanced AC-3
Commercial name             : Dolby Digital Plus
Codec ID                    : A_EAC3
Duration                    : 2 h 25 min
Bit rate mode               : Constant
Bit rate                    : 640 kb/s
Channel(s)                  : 6 channels
Channel layout              : L R C LFE Ls Rs
Sampling rate               : 48.0 kHz
Frame rate                  : 31.250 FPS (1536 SPF)
Compression mode            : Lossy
Stream size                 : 667 MiB (9%)
Title                       : Hindi
Language                    : Hindi
Service kind                : Complete Main
Default                     : No
Forced                      : No

Text
ID                          : 3
Format                      : UTF-8
Codec ID                    : S_TEXT/UTF8
Codec ID/Info               : UTF-8 Plain Text
Duration                    : 2 h 17 min
Bit rate                    : 67 b/s
Count of elements           : 2181
Stream size                 : 67.9 KiB (0%)
Title                       : English [SDH]
Language                    : English
Default                     : No
Forced                      : No

                   

Category:Movies > Bollywood
Lang:Hindi
Total Size:7.32 GB

|| Download This Movie Via Single Resumable Links Size: 7.32 GB ||

Direct-1 Google Drive | Direct-2 | Direct-3 |

Watch Online Click Here

Incoming search terms: