Gold (2018) Hindi 720p AMZN-DL H264 AAC DDP5.1 – xRG

Poster

iMDB

Imdb Picture Title: Gold
Year: 2018
Runtime: 151 minutes
Votes: 800
Rating: 8.8/10
Language: Hindi
Country: India
All Genres: Drama, History, Sport
Plot Outline: Set in 1948, the historic story of India’s first Olympic medal post their independence.
Director: Reema Kagti
Writing By: Rajesh Devraj,Reema Kagti,Reema Kagti,Javed Akhtar,
Produced By: Farhan Akhtar,Vikesh Bhutani,Kassim Jagmagia,Firuzi Khan,Seher Latif,Shivani Saran,Ritesh Sidhwani,
Music: Sachin Sanghvi Jigar Saraiya
Cast:
Akshay Kumar as Tapan Das
Mouni Roy as Monobina Das
Kunal Kapoor as Samrat
Amit Sadh as Raghubir Pratap Singh
Vineet Kumar Singh as Imtiaz Shah
Sunny Kaushal as Himmat Singh
Nikita Dutta as Simran
Andrew Havill as Sir James Benson
Manjit Singh as Barry / Hockey Player
Christopher James Burton as Dutch Goaltender
Trailers:
Gold Teaser

Details

Name:Gold (2018) Hindi 720p AMZN-DL H264 AAC DDP5.1 – xRG
Description:

Gold (2018) Hindi 720p AMZN-DL H264 AAC DDP5.1 – xRG


General
Format                                   : Matroska
Format version                           : Version 4 / Version 2
File size                                : 1.60 GiB
Duration                                 : 2 h 25 min
Overall bit rate                         : 1 576 kb/s

Video
ID                                       : 1
Format                                   : AVC
Format/Info                              : Advanced Video Codec
Format profile                           : High@L4.1
Format settings                          : CABAC / 8 Ref Frames
Format settings, CABAC                   : Yes
Format settings, ReFrames                : 8 frames
Codec ID                                 : V_MPEG4/ISO/AVC
Duration                                 : 2 h 25 min
Bit rate                                 : 1 400 kb/s
Width                                    : 1 280 pixels
Height                                   : 536 pixels
Display aspect ratio                     : 2.40:1
Frame rate mode                          : Constant
Frame rate                               : 25.000 FPS
Color space                              : YUV
Chroma subsampling                       : 4:2:0
Bit depth                                : 8 bits
Scan type                                : Progressive
Bits/(Pixel*Frame)                       : 0.082
Stream size                              : 1.43 GiB (89%)
Writing library                          : x264 core 152 r2851 ba24899
Default                                  : Yes
Forced                                   : No
Color range                              : Limited
Color primaries                          : BT.709
Transfer characteristics                 : BT.709
Matrix coefficients                      : BT.709

Audio
ID                                       : 2
Format                                   : AAC
Format/Info                              : Advanced Audio Codec
Format profile                           : HE-AAC / LC
Format settings                          : Explicit
Codec ID                                 : A_AAC-2
Duration                                 : 2 h 25 min
Bit rate                                 : 174 kb/s
Channel(s)                               : 6 channels
Channel positions                        : Front: L C R, Side: L R, LFE
Sampling rate                            : 48.0 kHz / 24.0 kHz
Frame rate                               : 23.438 FPS (1024 SPF)
Compression mode                         : Lossy
Delay relative to video                  : 31 ms
Stream size                              : 181 MiB (11%)
anguage                                 : Hindi
Default                                  : No
Forced                                   : No

Text
ID                                       : 3
Format                                   : UTF-8
Codec ID                                 : S_TEXT/UTF8
Codec ID/Info                            : UTF-8 Plain Text
Duration                                 : 2 h 17 min
Bit rate                                 : 67 b/s
Count of elements                        : 2181
Stream size                              : 67.9 KiB (0%)
Language                                 : English
Default                                  : No
Forced                                   : No

Category:Movies > Bollywood
Lang:Hindi
Total Size:1.61 GB

|| Download This Movie Via Single Resumable Links Size: 1.60 GB ||

Direct-1 Google Drive | Direct-2 | Direct-3 |

Watch Online Click Here