Halkaa (2018) Hindi 1080p NF WEB-DL H264 AC3 DDP 5.1 – NbT

Poster

iMDB

Title: Halkaa
Year: 2018
Runtime: 114 minutes
Votes: 32
Rating: 8.7/10
Language: Hindi
Director: Nila Madhab Panda
Writing By: Nitin Dixit,Nitin Dixit,Nitin Dixit,Protiqe Mojoomdar,Nila Madhab Panda,
Produced By: Jitendra Mishra,Nila Madhab Panda,Akshya Parija,Supratik Roy,Vasu Sharma,Kapil Tanwar,
Music: Shankar Mahadevan Loy Mendonsa Ehsaan Noorani
Cast:
Paoli Dam as Shobha
Vipin Katyal as Gobardhan
Ranvir Shorey as Ramesh
Tathastu “>Tathastu as Pichku

Details

Name:Halkaa 2018 Hindi 1080p NF WEB-DL H264 DDP 5.1 – NbT
Description:

Halkaa 2018 Hindi 1080p NF WEB-DL H264 DDP 5.1 – NbT
https://m.media-amazon.com/images/M/MV5BM2JhODc4ODItMzgwNC00YzBhLTkyMDMtNDAyMDMzMTVlMjQ1XkEyXkFqcGdeQXVyNjE1OTQ0NjA@._V1_.jpg

General
Format                                   : Matroska
Format version                           : Version 4
File size                                : 6.00 GiB
Duration                                 : 1 h 50 min
Overall bit rate mode                    : Variable
Overall bit rate                         : 7 747 kb/s
Movie name                               : Halkaa 2018 Hindi 1080p NF WEB-DL H264 DDP 5.1 – NbT
Encoded date                             : UTC 2018-11-18 12:01:43
Writing application                      : mkvmerge v28.2.0 (‘The Awakening’) 64-bit
Writing library                          : libebml v1.3.6 + libmatroska v1.4.9
Cover                                    : Yes
Attachments                              : Cover.jpg

Video
ID                                       : 1
Format                                   : AVC
Format/Info                              : Advanced Video Codec
Format profile                           : Main@L4
Format settings                          : CABAC / 3 Ref Frames
Format settings, CABAC                   : Yes
Format settings, ReFrames                : 3 frames
Format settings, GOP                     : M=3, N=48
Codec ID                                 : V_MPEG4/ISO/AVC
Duration                                 : 1 h 50 min
Bit rate mode                            : Variable
Bit rate                                 : 7 150 kb/s
Maximum bit rate                         : 10.7 Mb/s
Width                                    : 1 920 pixels
Height                                   : 1 080 pixels
Display aspect ratio                     : 16:9
Frame rate mode                          : Constant
Frame rate                               : 24.000 FPS
Color space                              : YUV
Chroma subsampling                       : 4:2:0
Bit depth                                : 8 bits
Scan type                                : Progressive
Bits/(Pixel*Frame)                       : 0.144
Stream size                              : 5.51 GiB (92%)
Title                                    : Halkaa 2018 Hindi 1080p NF WEB-DL H264 DDP 5.1 – NbT
Writing library                          : x264 core 148 r2715 7e75228
Language                                 : Hindi
Default                                  : Yes
Forced                                   : No

Audio
ID                                       : 2
Format                                   : E-AC-3
Format/Info                              : Enhanced AC-3
Commercial name                          : Dolby Digital Plus
Codec ID                                 : A_EAC3
Duration                                 : 1 h 50 min
Bit rate mode                            : Constant
Bit rate                                 : 640 kb/s
Channel(s)                               : 6 channels
Channel layout                           : L R C LFE Ls Rs
Sampling rate                            : 48.0 kHz
Frame rate                               : 31.250 FPS (1536 SPF)
Compression mode                         : Lossy
Stream size                              : 508 MiB (8%)
Title                                    : Halkaa 2018 Hindi 1080p NF WEB-DL H264 DDP 5.1 – NbT
Language                                 : Hindi
Service kind                             : Complete Main
Default                                  : Yes
Forced                                   : No

Text
ID                                       : 3
Format                                   : UTF-8
Codec ID                                 : S_TEXT/UTF8
Codec ID/Info                            : UTF-8 Plain Text
Duration                                 : 1 h 45 min
Bit rate                                 : 55 b/s
Count of elements                        : 1314
Stream size                              : 42.5 KiB (0%)
Title                                    : English [Full]
Language                                 : English
Default                                  : Yes
Forced                                   : No

Category:Movies > Bollywood
Lang:Hindi
Total Size:6.00 GB

|| Download This Movie Via Single Resumable Links Size: 6.00 GB ||

Direct-1 Google Drive | Direct-2 | Direct-3 |

Watch Online Click Here

Incoming search terms: