Incredibles 2 (2018) BluRay 720p Org Multi Audio [Hindi + Eng + Tamil + Telugu] x264 Esub ~TR~

Poster

iMDB

Imdb Picture Title: Incredibles 2
Year: 2018
Runtime: 118 minutes
Votes: 11407
Rating: 8.6/10
Language: English
Country: USA
All Genres: Animation, Action, Adventure, Comedy, Family, Sci-Fi
Plot Outline: Bob Parr (Mr. Incredible) is left to care for Jack-Jack while Helen (Elastigirl) is out saving the world.
Tagline: Back to work.
Director: Brad Bird
Writing By: Brad Bird,
Produced By: Nicole Paradis Grindle,John Lasseter,John Walker,
Music: Michael Giacchino
Cast:
Craig T. Nelson as Bob Parr / Mr. Incredible
Holly Hunter as Helen Parr / Elastigirl
Sarah Vowell as Violet Parr
Huck Milner as Dashiell Parr (Dash)
Catherine Keener as Evelyn Deavor
Eli Fucile as Jack-Jack Parr
Bob Odenkirk as Winston Deavor
Samuel L. Jackson as Lucius Best / Frozone
Michael Bird as Tony Rydinger
Sophia Bush as Voyd
Trailers:
Official Trailer
Winter Games TV Spot
Official Teaser Trailer

Details

Name:Incredibles 2 (2018) BluRay 720p Org Multi Audio [Hindi + Eng + Tamil + Telugu] x264 Esub ~TR~
Description:

Incredibles 2 2018 BluRay 720p Org Multi Audio [Hindi + Eng + Tamil + Telugu] x264 Esub ~TR~
 
 

General
Format                                   : Matroska
Format version                           : Version 4 / Version 2
File size                                : 1.37 GiB
Duration                                 : 1 h 57 min
Overall bit rate                         : 1 662 kb/s

Video
ID                                       : 1
Format                                   : AVC
Format/Info                              : Advanced Video Codec
Format profile                           : High@L4.1
Format settings                          : CABAC / 12 Ref Frames
Format settings, CABAC                   : Yes
Format settings, ReFrames                : 12 frames
Codec ID                                 : V_MPEG4/ISO/AVC
Duration                                 : 1 h 57 min
Bit rate                                 : 1 175 kb/s
Width                                    : 1 280 pixels
Height                                   : 536 pixels
Display aspect ratio                     : 2.40:1
Frame rate mode                          : Constant
Frame rate                               : 23.976 (24000/1001) FPS
Color space                              : YUV
Chroma subsampling                       : 4:2:0
Bit depth                                : 8 bits
Scan type                                : Progressive
Bits/(Pixel*Frame)                       : 0.071
Stream size                              : 990 MiB (71%)
Writing library                          : x264 core 155 r2901 7d0ff22
Language                                 : English
Default                                  : Yes
Forced                                   : No
Color range                              : Limited
Color primaries                          : BT.709
Transfer characteristics                 : BT.709
Matrix coefficients                      : BT.709

Audio #1
ID                                       : 2
Format                                   : AC-3
Format/Info                              : Audio Coding 3
Codec ID                                 : A_AC3
Duration                                 : 1 h 57 min
Bit rate mode                            : Constant
Bit rate                                 : 128 kb/s
Channel(s)                               : 2 channels
Channel positions                        : Front: L R
Sampling rate                            : 48.0 kHz
Frame rate                               : 31.250 FPS (1536 SPF)
Bit depth                                : 16 bits
Compression mode                         : Lossy
Stream size                              : 108 MiB (8%)
Language                                 : Tamil
Service kind                             : Complete Main
Default                                  : Yes
Forced                                   : No

Audio #2
ID                                       : 3
Format                                   : MPEG Audio
Format version                           : Version 1
Format profile                           : Layer 3
Format settings                          : Joint stereo / MS Stereo
Codec ID                                 : A_MPEG/L3
Codec ID/Hint                            : MP3
Duration                                 : 1 h 57 min
Bit rate mode                            : Constant
Bit rate                                 : 128 kb/s
Channel(s)                               : 2 channels
Sampling rate                            : 48.0 kHz
Frame rate                               : 41.667 FPS (1152 SPF)
Compression mode                         : Lossy
Stream size                              : 108 MiB (8%)
Writing library                          : LAME3.99r
Encoding settings                        : -m j -V 4 -q 3 -lowpass 17 -b 128
Language                                 : Telugu
Default                                  : No
Forced                                   : No

Audio #3
ID                                       : 4
Format                                   : AC-3
Format/Info                              : Audio Coding 3
Codec ID                                 : A_AC3
Duration                                 : 1 h 57 min
Bit rate mode                            : Constant
Bit rate                                 : 128 kb/s
Channel(s)                               : 2 channels
Channel positions                        : Front: L R
Sampling rate                            : 48.0 kHz
Frame rate                               : 31.250 FPS (1536 SPF)
Bit depth                                : 16 bits
Compression mode                         : Lossy
Stream size                              : 108 MiB (8%)
Language                                 : Hindi
Service kind                             : Complete Main
Default                                  : No
Forced                                   : No

Audio #4
ID                                       : 5
Format                                   : AAC
Format/Info                              : Advanced Audio Codec
Format profile                           : HE-AAC / LC
Format settings                          : Explicit
Codec ID                                 : A_AAC-2
Duration                                 : 1 h 57 min
Bit rate                                 : 100.0 kb/s
Channel(s)                               : 2 channels
Channel positions                        : Front: L R
Sampling rate                            : 48.0 kHz / 24.0 kHz
Frame rate                               : 23.438 FPS (1024 SPF)
Compression mode                         : Lossy
Delay relative to video                  : 31 ms
Stream size                              : 84.3 MiB (6%)
Language                                 : English
Default                                  : No
Forced                                   : No

Text
ID                                       : 6
Format                                   : UTF-8
Codec ID                                 : S_TEXT/UTF8
Codec ID/Info                            : UTF-8 Plain Text
Duration                                 : 1 h 46 min
Bit rate                                 : 75 b/s
Count of elements                        : 1991
Stream size                              : 59.4 KiB (0%)
Language                                 : English
Default                                  : No
Forced                                   : No


       

Category:Movies > Hollywood Dub
Lang:Hindi
Total Size:1.37 GB

|| Download This Movie Via Single Resumable Links Size: 1.37 GB ||

Direct-1 Google Drive | Direct-2 | Direct-3 |

Watch Online Click Here

Incoming search terms: