Incredibles 2 (2018) BluRay 720p x265 [Dual Audio] [Hindi DD 5.1 – Eng] AAC Msub -=!Katyayan!=-

Poster

iMDB

Imdb Picture Title: Incredibles 2
Year: 2018
Runtime: 118 minutes
Votes: 11407
Rating: 8.6/10
Language: English
Country: USA
All Genres: Animation, Action, Adventure, Comedy, Family, Sci-Fi
Plot Outline: Bob Parr (Mr. Incredible) is left to care for Jack-Jack while Helen (Elastigirl) is out saving the world.
Tagline: Back to work.
Director: Brad Bird
Writing By: Brad Bird,
Produced By: Nicole Paradis Grindle,John Lasseter,John Walker,
Music: Michael Giacchino
Cast:
Craig T. Nelson as Bob Parr / Mr. Incredible
Holly Hunter as Helen Parr / Elastigirl
Sarah Vowell as Violet Parr
Huck Milner as Dashiell Parr (Dash)
Catherine Keener as Evelyn Deavor
Eli Fucile as Jack-Jack Parr
Bob Odenkirk as Winston Deavor
Samuel L. Jackson as Lucius Best / Frozone
Michael Bird as Tony Rydinger
Sophia Bush as Voyd
Trailers:
Official Trailer
Winter Games TV Spot
Official Teaser Trailer

Details

Name:Incredibles 2 (2018) BluRay 720p x265 [Dual Audio] [Hindi DD 5.1 – Eng] AAC Msub -=!Katyayan!=-
Description:

Incredibles 2 2018 BluRay 720p x265 [Dual Audio] [Hindi DD 5.1 – Eng] AAC Msub -=!Katyayan!=-

Special Thanks To Mr.Rajput For Hindi Audio

General
Format                                   : Matroska
Format version                           : Version 4 / Version 2
File size                                : 995 MiB
Duration                                 : 1 h 57 min
Overall bit rate                         : 1 181 kb/s
Movie name                               : Incredibles 2 2018 BluRay 720p x265 [Dual Audio] [Hindi DD 5.1 – Eng] AAC Msub -=!Katyayan!=-
Encoded date                             : UTC 2018-11-13 06:48:31
Writing application                      : mkvmerge v24.0.0 (‘Beyond The Pale’) 64-bit
Writing library                          : libebml v1.3.6 + libmatroska v1.4.9
Cover                                    : Yes
Attachments                              : Incredibles 2 2018 Cover -=!Katyayan!=-

Video
ID                                       : 1
Format                                   : HEVC
Format/Info                              : High Efficiency Video Coding
Format profile                           : Main@L3.1@Main
Codec ID                                 : V_MPEGH/ISO/HEVC
Duration                                 : 1 h 57 min
Bit rate                                 : 912 kb/s
Width                                    : 1 280 pixels
Height                                   : 536 pixels
Display aspect ratio                     : 2.40:1
Frame rate mode                          : Constant
Frame rate                               : 23.976 (24000/1001) FPS
Color space                              : YUV
Chroma subsampling                       : 4:2:0
Bit depth                                : 8 bits
Bits/(Pixel*Frame)                       : 0.055
Stream size                              : 768 MiB (77%)
Title                                    : Incredibles 2 2018 BluRay 720p x265 [Dual Audio] [Hindi DD 5.1 – Eng] AAC Msub -=!Katyayan!=-
Language                                 : English
Default                                  : Yes
Forced                                   : No

Audio #1
ID                                       : 2
Format                                   : AAC
Format/Info                              : Advanced Audio Codec
Format profile                           : HE-AAC / LC
Format settings                          : Explicit
Codec ID                                 : A_AAC-2
Duration                                 : 1 h 57 min
Bit rate                                 : 69.0 kb/s
Channel(s)                               : 2 channels
Channel positions                        : Front: L R
Sampling rate                            : 48.0 kHz / 24.0 kHz
Frame rate                               : 23.438 FPS (1024 SPF)
Compression mode                         : Lossy
Delay relative to video                  : 23 ms
Stream size                              : 58.2 MiB (6%)
Title                                    : -=!Katyayan!=-
Language                                 : English
Default                                  : No
Forced                                   : No

Audio #2
ID                                       : 3
Format                                   : AAC
Format/Info                              : Advanced Audio Codec
Format profile                           : LC
Codec ID                                 : A_AAC-2
Duration                                 : 1 h 57 min
Bit rate                                 : 192 kb/s
Channel(s)                               : 6 channels
Channel positions                        : Front: L C R, Side: L R, LFE
Sampling rate                            : 48.0 kHz
Frame rate                               : 46.875 FPS (1024 SPF)
Compression mode                         : Lossy
Stream size                              : 162 MiB (16%)
Title                                    : -=!Katyayan!=-
Language                                 : Hindi
Default                                  : Yes
Forced                                   : Yes

Text #1
ID                                       : 4
Format                                   : PGS
Muxing mode                              : zlib
Codec ID                                 : S_HDMV/PGS
Codec ID/Info                            : Picture based subtitle format used on BDs/HD-DVDs
Duration                                 : 1 h 57 min
Bit rate                                 : 22 b/s
Count of elements                        : 154
Stream size                              : 19.2 KiB (0%)
Title                                    : -=!Katyayan!=-
Language                                 : Hindi
Default                                  : Yes
Forced                                   : Yes

Text #2
ID                                       : 5
Format                                   : VobSub
Muxing mode                              : zlib
Codec ID                                 : S_VOBSUB
Codec ID/Info                            : Picture based subtitle format used on DVDs
Duration                                 : 1 h 54 min
Bit rate                                 : 7 578 b/s
Count of elements                        : 2309
Stream size                              : 6.23 MiB (1%)
Title                                    : -=!Katyayan!=-
Language                                 : English
Default                                  : No
Forced                                   : No

 

Category:Movies > Hollywood Dub
Lang:Hindi
Total Size:995.58 MB

|| Download This Movie Via Single Resumable Links Size: 995 MB ||

Direct-1 Google Drive | Direct-2 | Direct-3 |

Watch Online Click Here

Incoming search terms: