Mission: Impossible – Fallout (2018) 720p WEB-DL Dual Audio [Hindi (Cam) + Eng] x264 Esub

Poster

iMDB

Imdb Picture Title: Mission: Impossible – Fallout
Year: 2018
Runtime: 147 minutes
Votes: 5275
Rating: 8.9/10
Language: English, French
Country: USA
All Genres: Action, Adventure, Thriller
Plot Outline: Ethan Hunt and his IMF team, along with some familiar allies, race against time after a mission gone wrong.
Tagline: Some missions are not a choice.
Director: Christopher McQuarrie
Writing By: Christopher McQuarrie,Bruce Geller,
Produced By: J.J. Abrams,Raphaël Benoliel,Per Henry Borch,Tom Cruise,David Ellison,Dana Goldberg,Tommy Gormley,Don Granger,Christopher McQuarrie,Jake Myers,
Music: Lorne Balfe
Cast:
Tom Cruise as Ethan Hunt
Henry Cavill as August Walker
Ving Rhames as Luther Stickell
Simon Pegg as Benji Dunn
Rebecca Ferguson as Ilsa Faust
Sean Harris as Solomon Lane
Angela Bassett as Erica Sloan
Vanessa Kirby as White Widow
Michelle Monaghan as Julia Meade-Hunt
Wes Bentley as Patrick
Trailers:
Official Trailer #2
Official Trailer

Details

Name:Mission: Impossible – Fallout (2018) 720p WEB-DL Dual Audio [Hindi (Cam) + Eng] x264 Esub
Description:

Mission: Impossible – Fallout (2018) 720p WEB-DL Dual Audio [Hindi (Cam) + Eng] x264 Esub




General
Format                                   : Matroska
Format version                           : Version 4 / Version 2
File size                                : 1.29 GiB
Duration                                 : 2 h 27 min
Overall bit rate                         : 1 250 kb/s

Video
ID                                       : 3
Format                                   : AVC
Format/Info                              : Advanced Video Codec
Format profile                           : High@L4.1
Format settings                          : CABAC / 5 Ref Frames
Format settings, CABAC                   : Yes
Format settings, ReFrames                : 5 frames
Codec ID                                 : V_MPEG4/ISO/AVC
Duration                                 : 2 h 27 min
Bit rate                                 : 1 056 kb/s
Width                                    : 1 280 pixels
Height                                   : 674 pixels
Display aspect ratio                     : 1.899
Frame rate mode                          : Constant
Frame rate                               : 23.976 (24000/1001) FPS
Color space                              : YUV
Chroma subsampling                       : 4:2:0
Bit depth                                : 8 bits
Scan type                                : Progressive
Bits/(Pixel*Frame)                       : 0.051
Stream size                              : 1.09 GiB (84%)
Writing library                          : x264 core 155 r2893 b00bcaf
Default                                  : Yes
Forced                                   : No
Color range                              : Limited
Color primaries                          : BT.709
Transfer characteristics                 : BT.709
Matrix coefficients                      : BT.709

Audio #1
ID                                       : 1
Format                                   : AAC
Format/Info                              : Advanced Audio Codec
Format profile                           : LC
Codec ID                                 : A_AAC-2
Duration                                 : 2 h 27 min
Bit rate                                 : 128 kb/s
Channel(s)                               : 2 channels
Channel positions                        : Front: L R
Sampling rate                            : 48.0 kHz
Frame rate                               : 46.875 FPS (1024 SPF)
Compression mode                         : Lossy
Delay relative to video                  : 2 s 100 ms
Stream size                              : 135 MiB (10%)
Language                                 : Hindi
Default                                  : Yes
Forced                                   : Yes

Audio #2
ID                                       : 2
Format                                   : AAC
Format/Info                              : Advanced Audio Codec
Format profile                           : HE-AAC / LC
Format settings                          : Explicit
Codec ID                                 : A_AAC-2
Duration                                 : 2 h 27 min
Bit rate                                 : 64.0 kb/s
Channel(s)                               : 2 channels
Channel positions                        : Front: L R
Sampling rate                            : 48.0 kHz / 24.0 kHz
Frame rate                               : 23.438 FPS (1024 SPF)
Compression mode                         : Lossy
Delay relative to video                  : 31 ms
Stream size                              : 67.5 MiB (5%)
Language                                 : English
Default                                  : No
Forced                                   : No

Text
ID                                       : 4
Format                                   : UTF-8
Codec ID                                 : S_TEXT/UTF8
Codec ID/Info                            : UTF-8 Plain Text
Duration                                 : 2 h 19 min
Bit rate                                 : 47 b/s
Count of elements                        : 1251
Stream size                              : 48.6 KiB (0%)
Language                                 : English
Default                                  : Yes
Forced                                   : No

Menu
00:00:00.000                             : :1
00:10:35.009                             : :2
00:17:08.986                             : :3
00:26:53.987                             : :4
00:35:52.984                             : :5
00:49:13.993                             : :6
00:59:56.009                             : :7
01:10:17.964                             : :8
01:17:00.991                             : :9
01:28:22.005                             : :10
01:39:02.019                             : :11
01:46:18.998                             : :12
01:55:37.013                             : :13
02:03:01.958                             : :14
02:13:51.982                             : :15
02:19:38.036                             : :16

ScreenShots




Category:Movies > Hollywood Dub
Lang:Hindi
Total Size:1.29 GB

|| Download This Movie Via Single Resumable Links Size: 1.29 GB ||

Direct-1 Google Drive | Direct-2 | Direct-3 |

Watch Online Click Here