Mitron (2018) Hindi 720p HDRip x264 AC3 DD5.1 – 1.3GB – ESub ~TMV~

Poster

iMDB

Title: Mitron
Year: 2018
Runtime: 119 minutes
Votes: 219
Rating: 7.3/10
Language: Hindi
Director: Nitin Kakkar
Writing By: Tharun Bhascker Dhaassyam,Sharib Hashmi,
Produced By: Chandresh Bhatt,Deesha Dhanuka,Vikram Malhotra,
Music: Sameer Uddin
Cast:
Jackky Bhagnani as Jai
Pratik Gandhi as Raunak
Kritika Kamra as Avni
Shivam Parekh as Deepu
Neha Reddy “>Neha Reddy as Bijal
Neeraj Sood as Father
Trailers:
Mitron trailer

Details

Name: Mitron (2018) Hindi 720p HDRip x264 AC3 DD5.1 – 1.3GB – ESub ~TMV~
Description:

 Mitron (2018) Hindi 720p HDRip x264 AC3 DD5.1 – 1.3GB – ESub ~TMV~

General
Format                                   : Matroska
Format version                           : Version 4 / Version 2
File size                                : 1.27 GiB
Duration                                 : 1 h 56 min
Overall bit rate                         : 1 558 kb/s

Video
ID                                       : 1
Format                                   : AVC
Format/Info                              : Advanced Video Codec
Format profile                           : High@L3.1
Format settings                          : CABAC / 4 Ref Frames
Format settings, CABAC                   : Yes
Format settings, ReFrames                : 4 frames
Codec ID                                 : V_MPEG4/ISO/AVC
Duration                                 : 1 h 56 min
Bit rate                                 : 1 428 kb/s
Width                                    : 1 280 pixels
Height                                   : 544 pixels
Display aspect ratio                     : 2.35:1
Frame rate mode                          : Constant
Frame rate                               : 24.000 FPS
Color space                              : YUV
Chroma subsampling                       : 4:2:0
Bit depth                                : 8 bits
Scan type                                : Progressive
Bits/(Pixel*Frame)                       : 0.085
Stream size                              : 1.16 GiB (92%)
Writing library                          : x264 core 155 r2901 7d0ff22
Language                                 : Hindi
Default                                  : Yes
Forced                                   : No

Audio
ID                                       : 2
Format                                   : AC-3
Format/Info                              : Audio Coding 3
Codec ID                                 : A_AC3
Duration                                 : 1 h 56 min
Bit rate mode                            : Constant
Bit rate                                 : 128 kb/s
Channel(s)                               : 6 channels
Channel positions                        : Front: L C R, Side: L R, LFE
Sampling rate                            : 44.1 kHz
Frame rate                               : 28.711 FPS (1536 SPF)
Bit depth                                : 16 bits
Compression mode                         : Lossy
Stream size                              : 106 MiB (8%)
Language                                 : Hindi
Service kind                             : Complete Main
Default                                  : Yes
Forced                                   : No

Text
ID                                       : 3
Format                                   : UTF-8
Codec ID                                 : S_TEXT/UTF8
Codec ID/Info                            : UTF-8 Plain Text
Duration                                 : 1 h 55 min
Bit rate                                 : 72 b/s
Count of elements                        : 2102
Stream size                              : 61.3 KiB (0%)
Language                                 : English
Default                                  : Yes
Forced                                   : No

           

Category:Movies > Bollywood
Lang:Hindi
Total Size:1.27 GB

|| Download This Movie Via Single Resumable Links Size: 1.27 GB ||

Direct-1 Google Drive | Direct-2 | Direct-3 |

Watch Online Click Here

Incoming search terms: