Mr. Magoo (1997) 1080p 10bit WEBHD x265 HEVC [Org DD 2.0 Hindi + DD 2.0 English] ~ TombDoc

Poster

iMDB

Title: Mr. Magoo
Year: 1997
Runtime: 87 minutes
Votes: 13141
Rating: 3.9/10
Language: English
Tagline: Mr. Magoo is going undercover, but he doesn’t have a clue.
Director: Stanley Tong
Writing By: Pat Proft,Tom Sherohman,
Produced By: Justis Greene,Andre Morgan,Ben Myron,Robert L. Rosen,Henry G. Saperstein,
Music: Michael Tavera
Cast:
Leslie Nielsen as Mr. Magoo
Kelly Lynch as Luanne
Matt Keeslar as Waldo
Nick Chinlund as Bob Morgan
Stephen Tobolowsky as Agent Chuck Stupak
Ernie Hudson as Agent Gus Anders
Jennifer Garner as Stacey Sampanahoditra
Malcolm McDowell as Austin Cloquet
Miguel Ferrer as Ortega Peru
L. Harvey Gold as Schmitt

Details

Name:Mr. Magoo (1997) 1080p 10bit WEBHD x265 HEVC [Org DD 2.0 Hindi + DD 2.0 English] ~ TombDoc
Description:

Mr. Magoo (1997) 1080p 10bit WEBHD x265 HEVC [Org DD 2.0 Hindi + DD 2.0 English] ~ TombDoc


Spcl Thanks To Punisher For Source

Format                                   : Matroska
Format version                           : Version 4
File size                                : 1.99 GiB
Duration                                 : 1 h 23 min
Overall bit rate                         : 3 409 kb/s

Video
ID                                       : 1
Format                                   : HEVC
Format/Info                              : High Efficiency Video Coding
Format profile                           : Main 10@L4@Main
Codec ID                                 : V_MPEGH/ISO/HEVC
Duration                                 : 1 h 23 min
Bit rate                                 : 3 023 kb/s
Width                                    : 1 920 pixels
Height                                   : 1 072 pixels
Display aspect ratio                     : 16:9
Frame rate mode                          : Constant
Frame rate                               : 25.000 FPS
Color space                              : YUV
Chroma subsampling                       : 4:2:0
Bit depth                                : 10 bits
Bits/(Pixel*Frame)                       : 0.059
Stream size                              : 1.76 GiB (89%)
Default                                  : Yes
Forced                                   : Yes
Color range                              : Limited
Matrix coefficients                      : BT.709

Audio #1
ID                                       : 2
Format                                   : AC-3
Format/Info                              : Audio Coding 3
Commercial name                          : Dolby Digital
Codec ID                                 : A_AC3
Duration                                 : 1 h 23 min
Bit rate mode                            : Constant
Bit rate                                 : 192 kb/s
Channel(s)                               : 2 channels
Channel layout                           : L R
Sampling rate                            : 48.0 kHz
Frame rate                               : 31.250 FPS (1536 SPF)
Bit depth                                : 16 bits
Compression mode                         : Lossy
Stream size                              : 114 MiB (6%)
Language                                 : Hindi
Service kind                             : Complete Main
Default                                  : Yes
Forced                                   : Yes

Audio #2
ID                                       : 3
Format                                   : AC-3
Format/Info                              : Audio Coding 3
Commercial name                          : Dolby Digital
Codec ID                                 : A_AC3
Duration                                 : 1 h 23 min
Bit rate mode                            : Constant
Bit rate                                 : 192 kb/s
Channel(s)                               : 2 channels
Channel layout                           : L R
Sampling rate                            : 48.0 kHz
Frame rate                               : 31.250 FPS (1536 SPF)
Bit depth                                : 16 bits
Compression mode                         : Lossy
Stream size                              : 114 MiB (6%)
Language                                 : English
Service kind                             : Complete Main
Default                                  : No
Forced                                   : No

                   

Category:Movies > Hollywood Dub
Lang:Hindi
Total Size:1.99 GB

|| Download This Movie Via Single Resumable Links Size: 1.99 GB ||

Direct-1 Google Drive | Direct-2 | Direct-3 |

Watch Online Click Here

Incoming search terms: