Halkaa (2018) Hindi 1080p NF WEB-DL H264 AC3 DDP 5.1 – NbT

…rate                         : 7 747 kb/sMovie name                               : Halkaa 2018 Hindi 1080p NF WEB-DL H264 DDP 5.1 – NbTEncoded date                             : UTC 2018-11-18 12:01:43Writing application                      : mkvmerge v28.2.0 (‘The Awakening’) 64-bitWriting…

» Read more

Stratton (2017) BluRay 720p Dual Audio [Hindi – English] x264 AC3-LOKiHD

…AC3-LOKiHD Description: Stratton 2017 720p BluRay Hindi English x264 AC3-LOKiHD ……………………………………………………………………………………………………  —[General]— Size…………: 1018 MBDuration……..: 01:34:28Chapters……..: NASource……….: Desire (thanks!)Encod3R………: LOKiHD —[Video]— Codec………..: AVCProfile………: High-L4.1             …

» Read more

Yamla Pagla Deewana Phir Se (2018) Hindi 720p WEB-HD – AVC – AAC -TeamCrazy Exclusive

…Front: CSampling rate                            : 44.1 kHzFrame rate                               : 43.066 FPS (1024 SPF)Compression mode                         : LossyStream size                              : 79.9 MiB (7%)Default                                  : YesAlternate group                          : 1 Category: Movies > Bollywood Lang:…

» Read more

Fantastic Beasts: The Crimes of Grindelwald (2018) 720p HDCAM x264 – Line Auds [Hindi + Eng] – 950MB – MovCr

msStream size                              : 72.0 MiB (7%)Language                                 : EnglishDefault                                  : NoForced                                   : No           Category: Movies > Hollywood Dub Lang: Hindi Total Size: 979.71 MB || Download…

» Read more

Tags: 7 Lam Arivu Full 700 Mb Movie lyrics, 7 Lam Arivu Full 700 Mb Movie free songspk, 7 Lam Arivu Full 700 Mb Movie download mp3, 7 Lam Arivu Full 700 Mb Movie video songs, 7 Lam Arivu Full 700 Mb Movie soundcloud / youtube flv mp4, watch 7 Lam Arivu Full 700 Mb Movie movie full hd bluray sd mb gb mkv 3gp streaming online 720p 1080p 2018, 7 Lam Arivu Full 700 Mb Movie Pagalworld 320kbps Starmusiq Playtamil Filmywap TamilRockers Mr Jatt MovieJatt MoviesJatt Masstamilan MadrasRockers TamilYogi Jalshamoviez isaidubmini 9 jio tnrockers single part kuttymovies



Related: