Halkaa (2018) Hindi 1080p NF WEB-DL H264 AC3 DDP 5.1 – NbT

…KiB (0%)Title                                    : English [Full]Language                                 : EnglishDefault                                  : YesForced                                   : No Category: Movies > Bollywood Lang: Hindi Total Size: 6.00 GB Sample || Download This Movie Via Single Resumable Links…

» Read more

Yamla Pagla Deewana Phir Se (2018) Hindi 720p WEB-HD – AVC – AAC -TeamCrazy Exclusive

…Front: CSampling rate                            : 44.1 kHzFrame rate                               : 43.066 FPS (1024 SPF)Compression mode                         : LossyStream size                              : 79.9 MiB (7%)Default                                  : YesAlternate group                          : 1 Category: Movies > Bollywood Lang:…

» Read more

Fantastic Beasts: The Crimes of Grindelwald (2018) 720p HDCAM x264 – Line Auds [Hindi + Eng] – 950MB – MovCr

…msStream size                              : 72.0 MiB (7%)Language                                 : EnglishDefault                                  : NoForced                                   : No           Category: Movies > Hollywood Dub Lang: Hindi Total Size: 979.71 MB || Download

» Read more

Tags: Bol Maye Gujriye Song Download lyrics, Bol Maye Gujriye Song Download free songspk, Bol Maye Gujriye Song Download download mp3, Bol Maye Gujriye Song Download video songs, Bol Maye Gujriye Song Download soundcloud / youtube flv mp4, watch Bol Maye Gujriye Song Download movie full hd bluray sd mb gb mkv 3gp streaming online 720p 1080p 2018, Bol Maye Gujriye Song Download Pagalworld 320kbps Starmusiq Playtamil Filmywap TamilRockers Mr Jatt MovieJatt MoviesJatt Masstamilan MadrasRockers TamilYogi Jalshamoviez isaidubmini 9 jio tnrockers single part kuttymovies



Related: