Mission: Impossible – Fallout (2018) 720p WEB-DL Dual Audio [Hindi (Cam) + Eng] x264 Esub

…rate                                 : 128 kb/sChannel(s)                               : 2 channelsChannel positions                        : Front: L RSampling rate                            : 48.0 kHzFrame rate                               : 46.875 FPS (1024 SPF)Compression mode                         : LossyDelay relative to video                  : 2…

» Read more

Incredibles 2 (2018) BluRay 720p Org Multi Audio [Hindi + Eng + Tamil + Telugu] x264 Esub ~TR~

bitsCompression mode                         : LossyStream size                              : 108 MiB (8%)Language                                 : TamilService kind                             : Complete MainDefault                                  : YesForced                                   : No Audio #2ID                                       : 3Format                                   : MPEG AudioFormat version                           : Version 1Format…

» Read more

Turup (2017) Hindi 1080p HDTVRip x264 AAC DD2.0 ~TeamCrazy Exclusive

…positions                        : Front: CSampling rate                            : 44.1 kHzFrame rate                               : 43.066 FPS (1024 SPF)Compression mode                         : LossyStream size                              : 66.3 MiB (5%)Title                                    : Track1Default                                  : YesAlternate group                          : 1  …

» Read more
1 2

Tags: Download Song Meri Jindgi Sawari Milind Gaba Wapking Com lyrics, Download Song Meri Jindgi Sawari Milind Gaba Wapking Com free songspk, Download Song Meri Jindgi Sawari Milind Gaba Wapking Com download mp3, Download Song Meri Jindgi Sawari Milind Gaba Wapking Com video songs, Download Song Meri Jindgi Sawari Milind Gaba Wapking Com soundcloud / youtube flv mp4, watch Download Song Meri Jindgi Sawari Milind Gaba Wapking Com movie full hd bluray sd mb gb mkv 3gp streaming online 720p 1080p 2018, Download Song Meri Jindgi Sawari Milind Gaba Wapking Com Pagalworld 320kbps Starmusiq Playtamil Filmywap TamilRockers Mr Jatt MovieJatt MoviesJatt Masstamilan MadrasRockers TamilYogi Jalshamoviez isaidubmini 9 jio tnrockers single part kuttymovies



Related: