Halkaa (2018) Hindi 1080p NF WEB-DL H264 AC3 DDP 5.1 – NbT

…SPF)Compression mode                         : LossyStream size                              : 508 MiB (8%)Title                                    : Halkaa 2018 Hindi 1080p NF WEB-DL H264 DDP 5.1 – NbTLanguage                                 : HindiService kind                             : Complete MainDefault                                  : YesForced                                   :…

» Read more

Yamla Pagla Deewana Phir Se (2018) Hindi 720p WEB-HD – AVC – AAC -TeamCrazy Exclusive

Front: CSampling rate                            : 44.1 kHzFrame rate                               : 43.066 FPS (1024 SPF)Compression mode                         : LossyStream size                              : 79.9 MiB (7%)Default                                  : YesAlternate group                          : 1 Category: Movies > Bollywood Lang:…

» Read more

Tags: Wo Kehne Wale Mujhko Farebi Mp3 Ringtone Download Music Bazaar Com lyrics, Wo Kehne Wale Mujhko Farebi Mp3 Ringtone Download Music Bazaar Com free songspk, Wo Kehne Wale Mujhko Farebi Mp3 Ringtone Download Music Bazaar Com download mp3, Wo Kehne Wale Mujhko Farebi Mp3 Ringtone Download Music Bazaar Com video songs, Wo Kehne Wale Mujhko Farebi Mp3 Ringtone Download Music Bazaar Com soundcloud / youtube flv mp4, watch Wo Kehne Wale Mujhko Farebi Mp3 Ringtone Download Music Bazaar Com movie full hd bluray sd mb gb mkv 3gp streaming online 720p 1080p 2018, Wo Kehne Wale Mujhko Farebi Mp3 Ringtone Download Music Bazaar Com Pagalworld 320kbps Starmusiq Playtamil Filmywap TamilRockers Mr Jatt MovieJatt MoviesJatt Masstamilan MadrasRockers TamilYogi Jalshamoviez isaidubmini 9 jio tnrockers single part kuttymovies



Related: