Rang Rasiya (2008) Hindi 1080p NF WEB-HD AC3 DD 5.1 ESub – DTOne

Poster

iMDB

Imdb Picture Original Title: Rang Rasiya
Title: Colours of Passion
Year: 2008
Runtime: 132 minutes
Votes: 1486
Rating: 7.1/10
Language: Hindi, English
Country: India
All Genres: Biography, Drama, Romance
Plot Outline: A look into the life of 19th century Indian painter Raja Ravi Varma.
Tagline: A story of a great Painter, who created the pictures of Hindu God in India.
Director: Ketan Mehta
Writing By: Sanjeev Dutta,Ketan Mehta,Ketan Mehta,
Produced By: Anand Mahendroo,Ketan Mehta,Rupali Mehta,Guneet Monga,Sanjeevkumar Nair,Mehool Parekh,Deepa Sahi,
Music: Sandesh Shandilya
Cast:
Randeep Hooda as Raja Ravi Verma
Nandana Sen as Sugandha
Paresh Rawal as Govardhandas
Ashish Vidyarthi as King Ailyum Thirunal
Sachin Khedekar as Justice Richards
Darshan Jariwala as Chintamani Pandit
Vikram Gokhale as Keshav Shastri
Jim Boeven as Fritz Schleizer
Suhasini Mulay as Bakubai
Prashant Narayanan as Visakham
Details

Name:Rang Rasiya (2008) Hindi 720p HDRip x264 AAC 1.5GB [MovCr]
Description:

 [18+] Rang Rasiya (2008) 1080p NF WEBHD DD 5.1 ESub – DTOne
General
Format                                   : Matroska
Format version                           : Version 4 / Version 2
File size                                : 4.93 GiB
Duration                                 : 1 h 54 min
Overall bit rate mode                    : Variable
Overall bit rate                         : 6 170 kb/s
Encoded date                             : UTC 2018-10-17 01:23:12 / UTC 2018-05-19 03:38:57
Writing application                      : mkvmerge v11.0.0 (‘Alive’) 64bit
Writing library                          : libebml v1.3.4 + libmatroska v1.4.5 / Lavf58.0.0

Video
ID                                       : 1
Format                                   : AVC
Format/Info                              : Advanced Video Codec
Format profile                           : Main@L4
Format settings                          : CABAC / 3 Ref Frames
Format settings, CABAC                   : Yes
Format settings, RefFrames               : 3 frames
Codec ID                                 : V_MPEG4/ISO/AVC
Duration                                 : 1 h 54 min
Bit rate mode                            : Variable
Bit rate                                 : 5 800 kb/s
Maximum bit rate                         : 8 700 kb/s
Width                                    : 1 920 pixels
Height                                   : 1 080 pixels
Display aspect ratio                     : 16:9
Frame rate mode                          : Constant
Frame rate                               : 25.000 FPS
Color space                              : YUV
Chroma subsampling                       : 4:2:0
Bit depth                                : 8 bits
Scan type                                : Progressive
Bits/(Pixel*Frame)                       : 0.112
Stream size                              : 4.52 GiB (92%)
Writing library                          : x264 core 148 r2715 7e75228

Audio
ID                                       : 2
Format                                   : AC-3
Format/Info                              : Audio Coding 3
Codec ID                                 : A_AC3
Duration                                 : 1 h 54 min
Bit rate mode                            : Constant
Bit rate                                 : 384 kb/s
Channel(s)                               : 6 channels
Channel positions                        : Front: L C R, Side: L R, LFE
Sampling rate                            : 48.0 kHz
Frame rate                               : 31.250 FPS (1536 SPF)
Bit depth                                : 16 bits
Compression mode                         : Lossy
Stream size                              : 314 MiB (6%)
Service kind                             : Complete Main
Default                                  : Yes
Forced                                   : No

Text
ID                                       : 3
Format                                   : UTF-8
Codec ID                                 : S_TEXT/UTF8
Codec ID/Info                            : UTF-8 Plain Text
Title                                    : English
Language                                 : English
Default                                  : Yes
Forced                                   : Yes
Category:Movies > Bollywood
Lang:Hindi
Total Size:4.93 GB

|| Download This Movie Via Single Resumable Links Size: 4.93 GB ||

Direct-1 Google Drive | Direct-2 | Direct-3 |

Watch Online Click Here