Saithan (2016) Hindi Dub 720p UntoucheD WEB-HD AVC AAC

Poster

iMDB

Title: Saithan
Year: 2016
Runtime: 123 minutes
Language: Tamil
All Genres: Action, Thriller
Director: Pradeep Krishnamoorthy
Writing By: Bhashyasree,Joe D. Cruz,Karthik Krishna,Pradeep Krishnamoorthy,
Produced By: Fathima Vijay Antony,
Music: Vijay Antony
Cast:
Vijay Antony as Dinesh
Arav as Nataraj
Chaaruhasan as
Kamal Krishna as
Meera Krishna as
Raja Krishnamoorthy as
Y.G. Mahendran as
Murugadass as
Arundathi Nair as Devagi / Ishwarya / Jayalakshmi
Vijay Sarathy as
Trailers:
Saithan (2016) Trailer

 
 

Details

Name:Saithan (2016) Hindi Dub 720p UntoucheD WEB-HD AVC AAC
Description:

Saithan (2016) Hindi Dub 720p UntoucheD WEB-HD AVC AAC



Format                                   : MPEG-4
Format profile                           : Base Media / Version 2
Codec ID                                 : mp42 (isom/mp42)
File size                                : 568 MiB
Duration                                 : 1 h 50 min
Overall bit rate mode                    : Variable
Overall bit rate                         : 718 kb/s
Encoded date                             : UTC 2018-09-08 14:14:31
Tagged date                              : UTC 2018-09-08 14:14:31
gsst                                     : 0
gstd                                     : 6640117

Video
ID                                       : 1
Format                                   : AVC
Format/Info                              : Advanced Video Codec
Format profile                           : Main@L3.1
Format settings                          : CABAC / 3 Ref Frames
Format settings, CABAC                   : Yes
Format settings, ReFrames                : 3 frames
Codec ID                                 : avc1
Codec ID/Info                            : Advanced Video Coding
Duration                                 : 1 h 50 min
Bit rate                                 : 589 kb/s
Width                                    : 1 280 pixels
Height                                   : 720 pixels
Display aspect ratio                     : 16:9
Frame rate mode                          : Constant
Frame rate                               : 25.000 FPS
Color space                              : YUV
Chroma subsampling                       : 4:2:0
Bit depth                                : 8 bits
Scan type                                : Progressive
Bits/(Pixel*Frame)                       : 0.026
Stream size                              : 466 MiB (82%)
Title                                    : ISO Media file produced by Google Inc. Created on: 09/08/2018.
Encoded date                             : UTC 2018-09-08 14:14:31
Tagged date                              : UTC 2018-09-08 14:14:31
Color range                              : Limited
Color primaries                          : BT.709
Transfer characteristics                 : BT.709
Matrix coefficients                      : BT.709

Audio
ID                                       : 2
Format                                   : AAC
Format/Info                              : Advanced Audio Codec
Format profile                           : LC
Codec ID                                 : mp4a-40-2
Duration                                 : 1 h 50 min
Bit rate mode                            : Variable
Bit rate                                 : 126 kb/s
Channel(s)                               : 2 channels
Channel positions                        : Front: L R
Sampling rate                            : 44.1 kHz
Frame rate                               : 43.066 FPS (1024 SPF)
Compression mode                         : Lossy
Stream size                              : 99.4 MiB (17%)
Title                                    : ISO Media file produced by Google Inc. Created on: 09/08/2018.
Language                                 : English
Encoded date                             : UTC 2018-09-08 14:14:31
Tagged date                              : UTC 2018-09-08 14:14:31


Saithan20201620Hindi20720p20By20-Sworld4ufree.Blogspot.Com.jpg

Category:Movies > South Dub
Lang:Hindi
Total Size:568.24 MB

|| Download This Movie Via Single Resumable Links Size: 568 MB ||

Direct-1 Google Drive | Direct-2 | Direct-3 |

Watch Online Click Here

Incoming search terms: