The Hunger Games (2012) 1080p 10bit Bluray x265 HEVC [Org BD DTS 5.1 Hindi + DD 5.1 English] ESubs ~ TombDoc

Poster
iMDB

Title: The Hunger Games
Year: 2012
Runtime: 142 minutes
Votes: 777758
Rating: 7.2/10
Language: English
Tagline: The Games Will Change Everyone
Director: Gary Ross
Writing By: Gary Ross,Suzanne Collins,Billy Ray,Suzanne Collins,
Produced By: Diana Alvarez,Robin Bissell,Martin Cohen,Suzanne Collins,Chantal Feghali,Nina Jacobson,Jon Kilik,Michael Paseornek,Louis Phillips,Aldric La’auli Porter,Louise Rosner,Bryan Unkeless,
Music: James Newton Howard
Cast:
Stanley Tucci as Caesar Flickerman
Wes Bentley as Seneca Crane
Jennifer Lawrence as Katniss Everdeen
Willow Shields as Primrose Everdeen
Liam Hemsworth as Gale Hawthorne
Elizabeth Banks as Effie Trinket
Sandra Ellis Lafferty as Hob Vendor
Paula Malcomson as Katniss’ Mother
Rhoda Griffis as Registration Woman
Sandino Moya-Smith as Propaganda Film Tribute
Trailers:
Blu-ray & DVD
Super Bowl Spot
No. 1
Sneak Peek
Details

Name:The Hunger Games (2012) 1080p 10bit Bluray x265 HEVC [Org BD DTS 5.1 Hindi + DD 5.1 English] ESubs ~ TombDoc
Description:

The Hunger Games (2012) 1080p 10bit Bluray x265 HEVC [Org BD DTS 5.1 Hindi + DD 5.1 English] ESubs ~ TombDoc
Source: Org Untouced Bluray DTS HDMA 5.1 1973Kbps Hindi Audio Hi-Man (HDDR) {Thanks}

Format                                   : Matroska
Format version                           : Version 4
File size                                : 3.65 GiB
Duration                                 : 2 h 22 min
Overall bit rate                         : 3 670 kb/s

Video
ID                                       : 1
Format                                   : HEVC
Format/Info                              : High Efficiency Video Coding
Format profile                           : Main 10@L4@Main
Codec ID                                 : V_MPEGH/ISO/HEVC
Duration                                 : 2 h 22 min
Bit rate                                 : 2 513 kb/s
Width                                    : 1 920 pixels
Height                                   : 800 pixels
Display aspect ratio                     : 2.40:1
Frame rate mode                          : Constant
Frame rate                               : 23.976 (24000/1001) FPS
Color space                              : YUV
Chroma subsampling                       : 4:2:0
Bit depth                                : 10 bits
Bits/(Pixel*Frame)                       : 0.068
Stream size                              : 2.50 GiB (68%)
Default                                  : Yes
Forced                                   : No

Audio #1
ID                                       : 2
Format                                   : DTS
Format/Info                              : Digital Theater Systems
Codec ID                                 : A_DTS
Duration                                 : 2 h 22 min
Bit rate mode                            : Constant
Bit rate                                 : 756 kb/s
Channel(s)                               : 6 channels
Channel layout                           : C L R Ls Rs LFE
Sampling rate                            : 48.0 kHz
Frame rate                               : 93.750 FPS (512 SPF)
Bit depth                                : 16 bits
Compression mode                         : Lossy
Delay relative to video                  : 1 s 684 ms
Stream size                              : 771 MiB (21%)
Title                                    : Org BD DTS 5.1 755Kbps ~ TombDoc
Language                                 : Hindi
Default                                  : Yes
Forced                                   : Yes

Audio #2
ID                                       : 3
Format                                   : AC-3
Format/Info                              : Audio Coding 3
Commercial name                          : Dolby Digital
Codec ID                                 : A_AC3
Duration                                 : 2 h 22 min
Bit rate mode                            : Constant
Bit rate                                 : 384 kb/s
Channel(s)                               : 6 channels
Channel layout                           : L R C LFE Ls Rs
Sampling rate                            : 48.0 kHz
Frame rate                               : 31.250 FPS (1536 SPF)
Bit depth                                : 16 bits
Compression mode                         : Lossy
Stream size                              : 392 MiB (10%)
Language                                 : English
Service kind                             : Complete Main
Default                                  : No
Forced                                   : No

Text #1
ID                                       : 4
Format                                   : PGS
Muxing mode                              : zlib
Codec ID                                 : S_HDMV/PGS
Codec ID/Info                            : Picture based subtitle format used on BDs/HD-DVDs
Duration                                 : 2 h 11 min
Bit rate                                 : 22.3 kb/s
Count of elements                        : 2196
Stream size                              : 21.0 MiB (1%)
Title                                    : Eng BD-PGS
Language                                 : English
Default                                  : Yes
Forced                                   : Yes

Text #2
ID                                       : 5
Format                                   : PGS
Muxing mode                              : zlib
Codec ID                                 : S_HDMV/PGS
Codec ID/Info                            : Picture based subtitle format used on BDs/HD-DVDs
Duration                                 : 2 h 11 min
Bit rate                                 : 25.3 kb/s
Count of elements                        : 2500
Stream size                              : 23.8 MiB (1%)
Title                                    : Eng BD-PGS-SDH
Language                                 : English
Default                                  : No
Forced                                   : No

         

Category:Movies > Hollywood Dub
Lang:Hindi
Total Size:3.70 GB

|| Download This Movie Via Single Resumable Links Size: 3.65 GB ||

Direct-1 Google Drive | Direct-2 | Direct-3 |

Watch Online Click Here

Incoming search terms: