The Swan Princess (1994) 720p DVDRip Dual Audio Hindi + Eng] Esubs Exclusive By Maher

Poster

iMDB

Title: The Swan Princess
Year: 1994
Votes: 20101
Rating: 6.5/10
Language: English
Tagline: The Magic Begins November 1994
Director: Richard Rich
Writing By: Richard Rich,Brian Nissen,Brian Nissen,
Produced By: Jared F. Brown,Matt Mazer,Terry L. Noss,Richard Rich,Thomas J. Tobin,Seldon Young,
Music: Lex de Azevedo
Cast:
Jack Palance as Lord Rothbart
Howard McGillin as Adult Prince Derek
Michelle Nicastro as Adult Princess Odette
Liz Callaway as Princess Odette
John Cleese as Jean-Bob
Steven Wright as Speed
Steve Vinovich as Puffin
Mark Harelik as Lord Rogers
James Arrington as Chamberlain
Davis Gaines as Chamberlain
Trailers:
The Swan Princess: The Mystery of the Enchanted Treasure
The Swan Princess: Special Edition
Details

Name:The Swan Princess (1994) 720p DVDRip Dual Audio Hindi + Eng] Esubs Exclusive By Maher
Description:

The Swan Princess 1994 x264 720p Dual Audio [Hindi + Eng] DVDRip Esubs Exclusive By Maher

-= An Enchanting Fairy Tale Filled With Music And Magic!=-

-=Exclusive By -=MAHER=-

Format : Matroska
Format version : Version 4 / Version 2
File size : 807 MiB
Duration : 1 h 26 min
Overall bit rate mode : Variable
Overall bit rate : 1 304 kb/s
Encoded date : UTC 2018-11-06 12:17:55
Writing application : mkvmerge v9.7.1 (‘Pandemonium’) 64bit
Writing library : libebml v1.3.4 + libmatroska v1.4.5 / Lavf55.33.100

Video
ID : 1
Format : AVC
Format/Info : Advanced Video Codec
Format profile : High@L4.1
Format settings : CABAC / 4 Ref Frames
Format settings, CABAC : Yes
Format settings, RefFrames : 4 frames
Codec ID : V_MPEG4/ISO/AVC
Duration : 1 h 25 min
Bit rate : 1 000 kb/s
Width : 1 280 pixels
Height : 720 pixels
Display aspect ratio : 16:9
Frame rate mode : Constant
Frame rate : 25.000 FPS
Color space : YUV
Chroma subsampling : 4:2:0
Bit depth : 8 bits
Scan type : Progressive
Bits/(Pixel*Frame) : 0.043
Stream size : 611 MiB (76%)
Writing library : x264 core 132
Default : Yes
Forced : No

Audio #1
ID : 2
Format : MPEG Audio
Format version : Version 1
Format profile : Layer 3
Format settings : Joint stereo / MS Stereo
Codec ID : A_MPEG/L3
Codec ID/Hint : MP3
Duration : 1 h 25 min
Bit rate mode : Variable
Bit rate : 128 kb/s
Channel(s) : 2 channels
Sampling rate : 48.0 kHz
Frame rate : 41.667 FPS (1152 SPF)
Compression mode : Lossy
Delay relative to video : -80 ms
Stream size : 78.1 MiB (10%)
Writing library : LAME3.90.
Encoding settings : -m j -V 4 -q 2 -lowpass 17.6 –abr 128
Language : English
Default : No
Forced : No

Audio #2
ID : 3
Format : AAC
Format/Info : Advanced Audio Codec
Format profile : LC
Codec ID : A_AAC-2
Duration : 1 h 25 min
Bit rate : 192 kb/s
Channel(s) : 2 channels
Channel positions : Front: L R
Sampling rate : 48.0 kHz
Frame rate : 46.875 FPS (1024 SPF)
Compression mode : Lossy
Delay relative to video : -80 ms
Stream size : 116 MiB (14%)
Title : BY-MAHER
Language : Hindi
Default : Yes
Forced : Yes

Text
ID : 4
Format : UTF-8
Codec ID : S_TEXT/UTF8
Codec ID/Info : UTF-8 Plain Text
Duration : 1 h 25 min
Bit rate : 53 b/s
Count of elements : 1180
Stream size : 33.7 KiB (0%)
Default : Yes
Forced : No

Upscaled DVD To 720p Version

Hindi Audio is missing in few parts So its replaced with English !

Perfect Sync By MAHER 
UNCUT Version 
It’s PAK Dubbing DTH Audio 1st on Net






Category:Movies > Hollywood Dub
Lang:Hindi
Total Size:806.63 MB

|| Download This Movie Via Single Resumable Links Size: 807 MB ||

Direct-1 Google Drive | Direct-2 | Direct-3 |

Watch Online Click Here