Turup (2017) Hindi 1080p HDTVRip x264 AAC DD2.0 ~TeamCrazy Exclusive

Poster

iMDB

Title: Turup (Checkmate)
Year: 2017
Runtime: 72 minutes
Votes: 25
Rating: 8.6/10
Language: Hindi
Director: Ektara Collective
Writing By: Maheen Mirza , Rinchin Rinchin ,
Cast:
Moulina Midde “>Moulina Midde as Monika
Sheela Rawat “>Sheela Rawat as Purnima
Madhu Bhagat as Lata
Syed Saim Ali “>Syed Saim Ali as Majid
Anil Singh “>Anil Singh as Tiwari
Details

Name:Turup (2017) Hindi 1080p HDTVRip x264 AAC DD2.0 ~TeamCrazy Exclusive
Description:

Turup (2017) Hindi 1080p HDTVRip x264 AAC DD2.0 ~TeamCrazy Exclusive

Source :- TeamTelly

General
Format                                   : MPEG-4
Format profile                           : Base Media
Codec ID                                 : isom (isom/iso2/avc1/mp41)
File size                                : 1.27 GiB
Duration                                 : 1 h 12 min
Overall bit rate                         : 2 506 kb/s
Writing application                      : Lavf58.12.100

Video
ID                                       : 1
Format                                   : AVC
Format/Info                              : Advanced Video Codec
Format profile                           : High@L4
Format settings                          : CABAC / 4 Ref Frames
Format settings, CABAC                   : Yes
Format settings, ReFrames                : 4 frames
Codec ID                                 : avc1
Codec ID/Info                            : Advanced Video Coding
Duration                                 : 1 h 12 min
Bit rate                                 : 2 369 kb/s
Width                                    : 1 920 pixels
Height                                   : 1 080 pixels
Display aspect ratio                     : 16:9
Frame rate mode                          : Constant
Frame rate                               : 25.000 FPS
Color space                              : YUV
Chroma subsampling                       : 4:2:0
Bit depth                                : 8 bits
Scan type                                : Progressive
Bits/(Pixel*Frame)                       : 0.046
Stream size                              : 1.20 GiB (95%)
Writing library                          : x264 core 148 r2643 5c65704

Audio
ID                                       : 2
Format                                   : AAC
Format/Info                              : Advanced Audio Codec
Format profile                           : LC
Codec ID                                 : mp4a-40-2
Duration                                 : 1 h 12 min
Bit rate mode                            : Constant
Bit rate                                 : 128 kb/s
Channel(s)                               : 2 channels
Channel(s)_Original                      : 1 channel
Channel positions                        : Front: C
Sampling rate                            : 44.1 kHz
Frame rate                               : 43.066 FPS (1024 SPF)
Compression mode                         : Lossy
Stream size                              : 66.3 MiB (5%)
Title                                    : Track1
Default                                  : Yes
Alternate group                          : 1

  itWYg.th.png itlSJ.th.png itj68.th.png itCzD.th.png itbN5.th.png itplR.th.png itNQm.th.png itnTA.th.png it3Je.th.png itRkU.th.png

Category:Movies > Bollywood
Lang:Hindi
Total Size:1.27 GB

|| Download This Movie Via Single Resumable Links Size: 1.27 GB ||

Direct-1 Google Drive | Direct-2 | Direct-3 |

Watch Online Click Here