Vishwaroopam 2 (2018) Hindi (HQ Line Audio) 720p HDRip x264 – 1.4GB – ESubs

Poster

iMDB

Imdb Picture Title: Vishwaroopam 2
Year: 2018
Runtime: 145 minutes
Votes: 530
Rating: 7.0/10
Language: Tamil, Hindi
Country: India
All Genres: Action, Thriller
Plot Outline: The Dirty Bomb planned attack on New York City by Al-Quada terrorist Omar Qureshi was destroyed by an Indian Intelligence Bureau Agent, Wisam through investigation. While Omar and Salim have escaped from New York to India, Wisam was given the responsibility to kill Omar along with his co-terrorists. In the process, Wisam’s past comes into fruition. Written by NV
Director: Kamal Haasan
Writing By: Kamal Haasan,Atul Tiwari,Kamal Haasan,Kamal Haasan,Shashank Vennelakanti,
Produced By: Chandra Haasan,Kamal Haasan,Rengarajan Jaiprakash,Viswanathan Ravichandran,Navmeet Singh,Jude S. Walko,
Music: Ghibran
Cast:
Kamal Haasan as Vishwanath / Wisam Ahmad Kashmiri
Rahul Bose as Omar
Shekhar Kapur as Col. Jaganath
Pooja Kumar as Dr. Nirupama
Andrea Jeremiah as Asmita
Jaideep Ahlawat as Salim
Ananth Narayan Mahadevan as Rajesh Mehta (Hindi) / Eshwar Iyer (Tamil)
Waheeda Rehman as Wisam’s Mother
Russell Geoffrey Banks as Jim
Damian Mavis as Army Surgeon
Trailers:
Vishwaroopam 2 (2018) Trailer

Details

Name:Vishwaroopam 2 (2018) Hindi (HQ Line Audio) – 720p HDRip – x264 – 1.4GB – ESubs
Description:

Vishwaroopam 2 2018 Hindi (HQ Line Audio) – 720p HDRip – x264 – 1.4GB – ESubs



Format                                   : Matroska
Format version                           : Version 4 / Version 2
File size                                : 1.42 GiB
Duration                                 : 2 h 24 min
Overall bit rate                         : 1 408 kb/s

Video
ID                                       : 1
Format                                   : AVC
Format/Info                              : Advanced Video Codec
Format profile                           : High@L3.1
Format settings                          : CABAC / 4 Ref Frames
Format settings, CABAC                   : Yes
Format settings, ReFrames                : 4 frames
Codec ID                                 : V_MPEG4/ISO/AVC
Duration                                 : 2 h 24 min
Bit rate                                 : 1 286 kb/s
Width                                    : 1 280 pixels
Height                                   : 536 pixels
Display aspect ratio                     : 2.40:1
Frame rate mode                          : Constant
Frame rate                               : 29.970 (30000/1001) FPS
Color space                              : YUV
Chroma subsampling                       : 4:2:0
Bit depth                                : 8 bits
Scan type                                : Progressive
Bits/(Pixel*Frame)                       : 0.063
Stream size                              : 1.29 GiB (91%)
Writing library                          : x264 core 152 r2851 ba24899
Language                                 : English
Default                                  : Yes
Forced                                   : No

Audio
ID                                       : 2
Format                                   : MPEG Audio
Format version                           : Version 1
Format profile                           : Layer 3
Format settings                          : Joint stereo
Codec ID                                 : A_MPEG/L3
Codec ID/Hint                            : MP3
Duration                                 : 2 h 24 min
Bit rate mode                            : Constant
Bit rate                                 : 128 kb/s
Channel(s)                               : 2 channels
Sampling rate                            : 48.0 kHz
Frame rate                               : 41.667 FPS (1152 SPF)
Compression mode                         : Lossy
Stream size                              : 132 MiB (9%)
Writing library                          : LAME3.99r
Encoding settings                        : -m j -V 4 -q 3 -lowpass 17 -b 128
Language                                 : English
Default                                  : Yes
Forced                                   : No

           

Category:Movies > South Dub
Lang:Hindi
Total Size:1.42 GB

|| Download This Movie Via Single Resumable Links Size: 1.42 GB ||

Direct-1 Google Drive | Direct-2 | Direct-3 |

Watch Online Click Here

Incoming search terms: