Warcraft (2016) BluRay 720p x264 {Dual Audio} [Hindi – English] – Hon3yHD

Poster

iMDB

Imdb Picture Original Title: Warcraft
Title: Warcraft: The Beginning
Year: 2016
Runtime: 123 minutes
Votes: 191285
Rating: 7.0/10
Language: English
Country: China, Canada, Japan, USA
All Genres: Action, Adventure, Fantasy
Plot Outline: As an Orc horde invades the planet Azeroth using a magic portal, a few human heroes and dissenting Orcs must attempt to stop the true evil behind this war.
Tagline: Two worlds. One home.
Director: Duncan Jones
Writing By: Charles Leavitt,Duncan Jones,
Produced By: Nicholas S. Carpenter,Edward Cheng,Stuart Fenegan,Alex Gartner,Jon Jashni,Peikang La,Chris Metzen,Michael Morhaime,Brent O’Connor,Rob Pardo,Shimu Qian,Charles Roven,Rebecca Steel Roven,Paul W. Sams,Jillian Share,Thomas Tull,Zhonglei Wang,
Music: Ramin Djawadi
Plot:

When the world of the Orcs of Draenor is being destroyed by the evil fel magic that uses life-force, the powerful warlock Gul’dan creates a portal to the world of Azeroth and forms the Horde with members of the Orc clans. He also captures many prisoners to keep the portal open. The king of Azeroth, Llane Wrynn and his brother-in-law, Anduin Lothar are informed by the apprentice of magician Khadgar that he has found fel magic in dead bodies and the king decides to summon the Guardian of Tirisfal, Medivh, to protect his kingdom. Lothar and Khadgar head to Kharazhan to meet Medivh and an ominous shadow points a book out to Khadgar, who takes it and hides. Anduin, Khadgar and Medivh and a group of soldiers are attacked by Orcs and they capture the slave Garona, who is released by King Llane, and she shows them the location of the portal. Garona is contacted by the Orc chief of a clan Durotan that wants to meet King Llane to stop the fel magic. Meanwhile Khadgar learns that the gate was opened with the help of someone in Azeroth. Shall King Llane trust Garona and Durotan, who might be the traitor?

Written by Claudio Carvalho, Rio de Janeiro, Brazil

As an Orc horde invades the planet Azeroth using a magic portal, a few human heroes and dissenting Orcs must attempt to stop the true evil behind this war.

Written by Kenneth Chisholm
Cast:
Travis Fimmel as Anduin Lothar
Paula Patton as Garona
Ben Foster as Medivh
Dominic Cooper as Llane Wrynn
Toby Kebbell as Durotan / Antonidas
Ben Schnetzer as Khadgar
Robert Kazinsky as Orgrim
Clancy Brown as Blackhand
Daniel Wu as Gul’dan
Ruth Negga as Lady Taria
Trailers:
Trailer #2
TV Spot
New Trailer
Trailer #1

Details

Name:Warcraft.2016.BluRay.720p.x264.{Dual.Audio}.[Hindi.Org-English].-.Hon3yHD
Description:

Warcraft (2016) BluRay 720p x264 {Dual Audio} [Hindi – English] – Hon3yHD

Format                      : Matroska
Format version              : Version 4 / Version 2
File size                   : 1.32 GiB
Duration                    : 2 h 3 min
Overall bit rate            : 1 530 kb/s

Video
ID                          : 1
Format                      : AVC
Format/Info                 : Advanced Video Codec
Format profile              : High@L4.1
Format settings             : CABAC / 8 Ref Frames
Format settings, CABAC      : Yes
Format settings, ReFrames   : 8 frames
Codec ID                    : V_MPEG4/ISO/AVC
Duration                    : 2 h 3 min
Bit rate                    : 1 200 kb/s
Width                       : 1 280 pixels
Height                      : 528 pixels
Display aspect ratio        : 2.40:1
Frame rate mode             : Constant
Frame rate                  : 23.976 (24000/1001) FPS

Audio #1
ID                          : 2
Format                      : AAC
Format/Info                 : Advanced Audio Codec
Format profile              : LC
Codec ID                    : A_AAC-2
Duration                    : 2 h 3 min
Bit rate                    : 160 kb/s
Channel(s)                  : 2 channels
Channel positions           : Front: L R
Sampling rate               : 48.0 kHz
Frame rate                  : 46.875 FPS (1024 SPF)
Compression mode            : Lossy
Delay relative to video     : -21 ms
Stream size                 : 141 MiB (10%)
Title                       : Stereo
Language                    : Hindi

Audio #2
ID                          : 3
Format                      : AAC
Format/Info                 : Advanced Audio Codec
Format profile              : LC
Codec ID                    : A_AAC-2
Duration                    : 2 h 3 min
Bit rate                    : 160 kb/s
Channel(s)                  : 2 channels
Channel positions           : Front: L R
Sampling rate               : 48.0 kHz
Frame rate                  : 46.875 FPS (1024 SPF)
Compression mode            : Lossy
Delay relative to video     : -21 ms
Stream size                 : 141 MiB (10%)
Title                       : Stereo
Language                    : English

 

Category:Movies > Hollywood Dub
Lang:Hindi
Total Size:1.32 GB

|| Download This Movie Via Single Resumable Links Size: 1.32 GB ||

Direct-1 Google Drive | Direct-2 | Direct-3 |

Watch Online Click Here

Incoming search terms: