Welcome (2007) Hindi 1080p WEB-DL x264 AAC DD2.0 -FLX.KartiKing

Poster

iMDB

Imdb Picture Title: Welcome
Year: 2007
Runtime: 159 minutes
Votes: 13644
Rating: 6.8/10
Language: Hindi
Country: India
All Genres: Comedy, Crime, Drama, Romance
Plot Outline: A man falls in love with a beautiful woman, but later discovers that her brothers are gangsters.
Director: Anees Bazmee
Writing By: Anees Bazmee,Rajeev Kaul,
Produced By: Rafi Kazi,Firoz Nadiadwala,
Music: Sajid Ali Wajid Ali Anand Raj Anand Himesh Reshammiya
Cast:
Akshay Kumar as Rajiv Saini
Nana Patekar as Uday Shankar Shetty
Anil Kapoor as Sagar ‘Majnu’ Pandey
Mallika Sherawat as Ishika / Isha
Katrina Kaif as Sanjana S. Shetty
Feroz Khan as Ranvir ‘RDX’ Dhanraj Xaja
Paresh Rawal as Dr. Ghunghroo
Malaika Arora as Dancer / Singer
Asrani as Bollywood Producer
Charlie as Municipal worker

Details

Name:Welcome.2007.1080p.Z5.WEB-DL.Hindi.Proper.2.0.x264-FLX.KartiKing
Description:

Welcome.2007.1080p.Z5.WEB-DL.Hindi.Proper.2.0.x264-FLX.KartiKing [3.2GB]

 
 Mediainfo :-

Format                                   : Matroska
Format version                           : Version 4
File size                                : 3.21 GiB
Duration                                 : 2 h 29 min
Overall bit rate                         : 3 078 kb/s

Video
ID                                       : 1
Format                                   : AVC
Format/Info                              : Advanced Video Codec
Format profile                           : High@L4
Format settings                          : CABAC / 4 Ref Frames
Format settings, CABAC                   : Yes
Format settings, RefFrames               : 4 frames
Codec ID                                 : V_MPEG4/ISO/AVC
Duration                                 : 2 h 29 min
Bit rate                                 : 3 000 kb/s
Width                                    : 1 920 pixels
Height                                   : 1 080 pixels
Display aspect ratio                     : 16:9
Frame rate mode                          : Constant
Frame rate                               : 25.000 FPS
Color space                              : YUV
Chroma subsampling                       : 4:2:0
Bit depth                                : 8 bits
Scan type                                : Progressive
Bits/(Pixel*Frame)                       : 0.058
Stream size                              : 3.14 GiB (98%)

Audio
ID                                       : 2
Format                                   : AAC LC
Format/Info                              : Advanced Audio Codec Low Complexity
Codec ID                                 : A_AAC-2
Duration                                 : 2 h 29 min
Bit rate                                 : 64.5 kb/s
Channel(s)                               : 2 channels
Channel layout                           : L R
Sampling rate                            : 48.0 kHz
Frame rate                               : 46.875 FPS (1024 SPF)
Compression mode                         : Lossy
Stream size                              : 68.9 MiB (2%)
Language                                 : Hindi
Default                                  : Yes
Forced                                   : No

SCREENSHOTS :-

 
 
 
 

Category:Movies > Bollywood
Lang:Hindi
Total Size:3.21 GB

|| Download This Movie Via Single Resumable Links Size: 3.21 GB ||

Direct-1 Google Drive | Direct-2 | Direct-3 |

Watch Online Click Here