Yamla Pagla Deewana Phir Se (2018) Hindi 720p WEB-HD – AVC – AAC -TeamCrazy Exclusive

Poster

iMDB

Title: Yamla Pagla Deewana Phir Se
Year: 2018
Runtime: 145 minutes
Language: Hindi
All Genres: Comedy
Director: Navaniat Singh
Writing By: Dheeraj Rattan,Bunty Rathore, Vankush Arora ,
Produced By: Akshay Gada,Dhaval Gada,Kushal Gada,Neeraj Gala,Reshmaa Kadakia,Ginny Khanuja,Aarushi Malhotra,Rupesh Mali,Kuldeep Rathore,Suniel S. Saini,Kamayani Punia Sharma,
Music: Raju Singh
Cast:
Dharmendra as Parmar
Sunny Deol as Puran
Bobby Deol as Kala
Shatrughan Sinha as Special Appearance
Kriti Kharbanda as Chikoo
Asrani as Nanu
Satish Kaushik as Bedi
Binnu Dhillon as Billa
Salman Khan as Mastana
Sharat Saxena as Judge Sunil Parekh

Details

Name:Yamla Pagla Deewana Phir Se (2018) Hindi 1080p UntoucheD WEB HD – AVC – AAC -TeamTelly Exclusive
Description:

Yamla Pagla Deewana Phir Se (2018) Hindi 1080p UntoucheD WEB HD – AVC – AAC -TeamTelly Exclusive

General
Format                                   : MPEG-4
Format profile                           : Base Media
Codec ID                                 : isom (isom/iso2/avc1/mp41)
File size                                : 1.11 GiB
Duration                                 : 2 h 19 min
Overall bit rate                         : 1 132 kb/s
Writing application                      : Lavf58.12.100

Video
ID                                       : 1
Format                                   : AVC
Format/Info                              : Advanced Video Codec
Format profile                           : High@L3.1
Format settings                          : CABAC / 4 Ref Frames
Format settings, CABAC                   : Yes
Format settings, ReFrames                : 4 frames
Codec ID                                 : avc1
Codec ID/Info                            : Advanced Video Coding
Duration                                 : 2 h 19 min
Bit rate                                 : 1 030 kb/s
Width                                    : 1 274 pixels
Height                                   : 720 pixels
Display aspect ratio                     : 16:9
Frame rate mode                          : Constant
Frame rate                               : 25.000 FPS
Color space                              : YUV
Chroma subsampling                       : 4:2:0
Bit depth                                : 8 bits
Scan type                                : Progressive
Bits/(Pixel*Frame)                       : 0.045
Stream size                              : 1.02 GiB (92%)
Writing library                          : x264 core 148 r2643 5c65704

Audio
ID                                       : 2
Format                                   : AAC
Format/Info                              : Advanced Audio Codec
Format profile                           : LC
Codec ID                                 : mp4a-40-2
Duration                                 : 2 h 19 min
Duration_LastFrame                       : -14 ms
Bit rate mode                            : Constant
Bit rate                                 : 80.0 kb/s
Channel(s)                               : 2 channels
Channel(s)_Original                      : 1 channel
Channel positions                        : Front: C
Sampling rate                            : 44.1 kHz
Frame rate                               : 43.066 FPS (1024 SPF)
Compression mode                         : Lossy
Stream size                              : 79.9 MiB (7%)
Default                                  : Yes
Alternate group                          : 1


407f5a63f2fa9940169cda2dae01ba4c.th.png c1ebaaf67115f26a29728faef9f25abb.th.png a1775669d82c89e489403fc9bf19cd23.th.png f246ef89a1d5a06563c25ea0852cd90c.th.png a114446c666a6fae904ba87fc40e27de.th.png 7b2b781d728bd0c14f5f6de90c193d9d.th.png 6fae2c7e8468e510a02e701321eff3fe.th.png 23dd73824fcb5ec37c394219632ef536.th.png e5197fcca1972de8436e7d465cf07b9a.th.png bc7fddd933673d2739e03067d3012b16.th.png

Category:Movies > Bollywood
Lang:Hindi
Total Size:3.01 GB

|| Download This Movie Via Single Resumable Links Size: 3.01 GB ||

Direct-1 Google Drive | Direct-2 | Direct-3 |

Watch Online Click Here

Incoming search terms: